#TITLE:Clarissa;
#SUBTITLE:;
#ARTIST:Mindless Self Indulgence;
#TITLETRANSLIT:;
#SUBTITLETRANSLIT:;
#ARTISTTRANSLIT:;
#CREDIT:;
#BANNER:clarissa.png;
#BACKGROUND:clarissa-bg.png;
#LYRICSPATH:;
#CDTITLE:cdtitle.png;
#MUSIC:Mindless Self Indulgence - Clarissa.mp3;
#OFFSET:0.280;
#SAMPLESTART:34.172;
#SAMPLELENGTH:12.000;
#SELECTABLE:YES;
#BPMS:0.000=170.880,16.500=176.880,17.000=170.880,73.000=85.440,75.500=226.920,76.000=262.120,76.500=341.759,77.000=383.779,77.500=416.198,78.000=443.018,78.500=487.438,79.000=516.658,79.500=549.878,80.000=583.897,80.500=634.717,81.000=667.936,81.500=701.956,82.000=733.576,82.500=770.795,83.000=825.875,84.000=170.882,115.500=177.882,116.000=170.882,170.000=341.761,172.000=170.882,178.000=341.761,180.000=170.882,186.000=341.761,188.000=170.881,192.000=42.721,192.250=341.761,192.500=370.980,192.750=393.800,193.000=433.420,193.250=461.839,193.500=492.279,193.750=532.640,194.000=565.059,194.500=592.679,195.000=637.098,195.500=671.118,196.000=697.938,196.500=723.958,197.000=744.198,197.500=760.618,198.000=776.237,200.000=859.997,204.000=170.884;
#STOPS:170.000=0.160
,171.000=0.200
,178.000=0.160
,179.000=0.200
,186.000=0.160
,187.000=0.200
;
#BGCHANGES:;
// cache tags:
#FIRSTBEAT:1.000;
#LASTBEAT:332.000;
#SONGFILENAME:Songs/Music V.I.P ^_^/Clarissa- IamMe/clarissa.sm;
#HASMUSIC:1;
#HASBANNER:1;
#MUSICLENGTH:115.965;
// end cache tags

//---------------dance-single - Blank----------------
#NOTES:
     dance-single:
     Blank:
     Challenge:
     11:
     1.000,1.000,1.000,0.276,0.599,686.000,355.000,32.000,0.000,3.000:

0000
0000
0000
0000
1010
0000
0100
0001
1000
0000
0010
0100
0001
1000
0010
0000
,
1000
0001
0100
0010
1001
0000
0010
0100
0001
0000
1000
0010
0100
0001
1000
0000
,
0010
0100
0001
0010
1001
0000
0001
0010
1000
0000
0100
0010
0001
0100
0010
0000
,
1000
0001
0010
0100
1001
0000
1100
0000
0011
0000
0110
0000
1001
0000
0101
0000
,
1010
0000
0110
0000
1001
0000
0010
0100
0001
1000
0010
0000
0101
0000
0101
0000
,
0010
0100
1001
0000
0110
0001
0100
0001
1010
0000
0100
0000
1001
0000
1100
0000
,
0011
0000
0110
0000
1001
0100
0010
0100
1001
0000
0100
0000
0011
0000
0011
0000
,
1100
0000
0110
0000
1010
0100
0001
0010
1001
0000
0100
0000
0011
0000
0011
0000
,
1100
1100
0012
0103
1010
0210
1301
0110
,
0101
0110
1001
1001
0110
1000
0110
0110
,
1000
0100
0010
0000
0102
0000
0013
0000
1001
0000
0120
0000
1031
0000
1100
0000
,
0011
1100
0011
1100
1000
1000
0110
0010
,
0010
0000
0110
0000
1001
0010
0100
0001
1010
0000
0101
0000
0010
0000
1100
0000
,
1002
0000
0103
0000
1010
0100
0001
0100
1001
0000
0110
0000
0001
0000
0110
0000
,
2010
0000
3001
0000
0110
1000
0001
1000
0110
0000
0011
0000
0100
0000
1010
0000
,
0102
0000
1003
0000
0101
1000
0001
0100
1001
0000
0110
0000
0001
0000
0110
0000
,
2100
0000
3001
0000
1010
0100
0001
0010
0001
0100
0010
1000
0001
1000
0001
0100
,
0010
1000
0001
0100
1001
0010
1000
0100
0010
0001
0010
0100
1000
0010
0100
0001
,
0010
0001
0110
0000
2002
0000
0000
0000
0000
0000
0000
0000
0000
0000
0000
0000
,
0000
0000
0000
0000
,
0000
0000
0000
0000
0000
0000
0000
3003
,
1001
0000
0010
0100
0000
0010
0100
0000
1001
0000
0110
0000
1010
0000
1001
0000
,
0110
0000
1100
0001
0000
1000
0011
0000
0110
0000
1000
0000
0110
0000
0001
0000
,
0110
0000
1000
0010
0000
0100
0001
0000
0110
0000
1010
0000
0101
0000
0110
0000
,
1001
0000
0110
1000
0000
0001
0110
0000
1001
0000
0100
0000
1001
0000
0100
0000
,
0011
0000
1010
0101
0000
0000
0011
0000
1001
0000
0100
0000
0011
0000
0101
0000
,
1010
0101
1010
0101
1001
0010
1001
0100
,
1001
0000
0000
1001
0000
0000
1001
0000
0101
0000
0110
0000
1010
0000
0110
0000
,
1100
0011
0110
1001
1010
0101
0110
1001
,
1010
0000
0001
0000
0110
1000
0001
0000
1010
0000
1010
0000
0001
0000
1010
0000
,
0101
0010
1000
0010
0101
0000
0110
0000
1010
0000
1010
0000
0101
0000
0101
0000
,
1000
0010
0100
0001
1010
0000
0110
0000
0101
0000
1010
0000
0110
0000
0011
0000
,
1001
0100
0010
1000
0101
0000
0010
0000
1100
0000
0011
0000
0110
0000
1001
0000
,
0120
1030
0101
0110
1001
0110
1001
0110
,
1010
0000
1010
0000
0101
0000
0010
0000
0101
0000
1001
0000
0110
0001
1000
0000
,
0210
0301
1010
0101
0110
1001
0110
1001
,
1100
0011
0110
0101
1010
0110
1001
0101
,
1001
0010
0100
0001
0110
0000
1010
0000
0100
0000
0011
0000
1002
0000
0103
0000
,
1010
0100
0010
0100
1010
0000
0101
0000
0010
0000
0110
0000
2001
0000
3010
0000
,
1001
0010
0001
0100
1010
0000
0110
0000
0001
0000
1010
0000
1002
0000
1003
0000
,
0110
0001
1000
0010
0101
0000
1100
0000
0010
0000
0101
0000
2010
0000
0000
0000
,
3001
0000
0010
0000
0001
0100
0000
0010
0100
0000
0010
0100
0000
0010
0100
0000
,
0001
0000
0010
0000
0100
1000
0000
0001
0110
0000
0000
0000
1001
0000
0000
0000
,
0100
0000
0010
0000
0001
0100
0000
0010
1000
0000
0010
1000
0000
0010
1000
0000
,
0001
0000
0100
0000
0010
1000
0000
0001
0110
0000
0000
0000
1001
0000
0000
0000
,
1000
0000
0001
0000
1000
0001
0000
0100
0010
0000
0100
0010
0000
0100
0010
0000
,
1000
0000
0010
0000
1000
0001
0000
1000
0110
0000
0000
0000
1001
0000
0000
0000
,
0001
0000
0100
0000
0010
1000
0000
0001
0100
0000
0001
0100
0000
0001
0100
0000
,
0020
0000
0000
0000
,
0000
0000
0000
0000
,
0000
0000
0000
0000
0000
0000
0000
0030
,
1001
0000
0100
1000
0001
1000
0100
0000
0011
0000
0100
0000
1010
0000
0101
0000
,
0110
1001
0110
0001
1010
0110
0101
0110
,
1001
0000
0101
1000
0000
1000
0101
0000
1010
0000
1010
0000
0100
0000
0011
0000
,
1001
0110
1001
0100
0011
1000
0011
1000
,
0022
0033
0000
0022
0033
0000
0022
0033
2200
3300
0000
2200
3300
0000
2200
3300
,
1001
1001
0000
0000
1010
0000
0101
0000
,
1010
0000
0000
0100
0000
0000
1000
0000
0000
0011
0000
0000
1100
0000
0000
0001
0010
0001
0100
0000
0000
1010
0000
0000
,
0001
0000
0110
0000
1001
0100
0000
0000
0011
0000
1100
0000
0001
1000
0001
0000
,
1010
0000
0000
1010
0000
0000
1010
0000
0101
0000
0000
0101
0000
0000
0101
0000
,
1010
0000
0101
0000
0010
1000
0010
0000
1001
0010
0100
0000
0100
0010
1000
0000
,
0001
0000
1100
0000
0001
1000
0100
0000
1010
0000
0100
0001
0100
0010
1001
0000
,
0100
0000
0011
0000
0100
1000
0010
0000
1001
0000
0110
0000
1000
0000
0101
0000
,
1001
0000
0000
1001
0000
0000
1001
0000
0110
0000
0001
0000
1010
0000
0101
0000
,
1000
0010
0000
0100
0000
0001
0010
0000
1100
0000
0001
0000
1100
0000
0001
0000
,
0110
0000
1000
0001
0100
0010
1000
0000
0101
0000
0010
0000
1100
0000
0011
0000
,
1100
0000
0001
0010
0100
1000
0010
0000
1001
0000
0100
0000
1001
0000
0110
0000
,
0101
0000
1000
0001
0100
0001
1000
0000
0110
0000
0110
0000
1000
0000
0110
0000
,
0011
0000
0100
1000
0001
0010
0100
0000
1001
0000
0100
0000
1001
0000
0110
0000
,
1001
0000
0010
1100
0000
0010
0101
0000
2001
0000
0010
0000
0100
0000
3011
0000
,
1100
0011
1100
0110
1001
0010
1001
0110
,
1100
0000
0001
0110
0000
1000
0110
0000
0011
0000
1100
0000
1010
0000
0101
0000
,
1001
0110
0101
0110
1010
0101
1010
0101
,
1001
0000
0110
1000
0000
0001
0110
0000
1010
0000
0100
0000
0011
0000
1100
0000
,
0101
0000
1010
0100
0000
0010
0101
0000
1001
0000
0010
0000
1001
0000
0100
0000
,
1001
0000
0010
0100
0010
0000
1100
0000
0011
0000
0110
0000
1001
0000
0110
0000
,
1010
0000
0001
0100
0001
0000
0101
0000
1001
0000
0100
0000
1001
0000
0100
0000
,
0011
0000
0100
1010
0000
0001
0110
0000
1001
0000
0110
0000
1010
0000
0101
0000
,
1001
0110
1000
0011
1001
0100
1001
0010
,
1001
0110
1010
0110
0101
0110
1010
0110
,
2002
0000
0000
0000
,
0000
0000
0000
0000
,
0000
0000
0000
0000
,
3003
0000
0000
0000
;

//---------------dance-single - Blank----------------
#NOTES:
     dance-single:
     Blank:
     Hard:
     10:
     1.000,1.000,1.000,0.293,0.612,686.000,227.000,34.000,0.000,0.000:

0000
0000
0000
0000
1000
0000
0010
0100
0001
0000
0100
0010
1000
0100
0010
0001
,
0100
0001
0010
0100
2000
0000
3010
0100
0001
0000
0010
0100
1000
0001
0100
0010
,
1000
0100
0010
0001
2000
0000
3010
0100
0001
0000
1000
0100
1000
0010
0100
0001
,
0010
0100
1000
0001
1000
0000
0010
0000
0100
0000
0001
0000
0010
0000
0001
0000
,
0100
0000
0010
0000
1000
0010
0100
0001
1000
0000
0100
0000
0011
0000
1100
0000
,
0001
0100
0010
0000
1000
0001
1000
0010
0100
0000
0010
0000
0101
0000
1010
0000
,
0110
0000
1001
0000
0010
0100
1000
0001
0100
0000
0010
0000
1100
0000
0011
0000
,
1100
0000
0011
0000
1000
0010
1000
0001
0100
0000
0010
0000
0101
0000
0110
0000
,
1010
0110
2001
0010
3200
0302
0013
1100
,
0010
1100
1001
1001
0010
1000
0110
0110
,
1001
1001
0210
0001
2300
3020
0130
1001
,
0100
1001
0110
1000
0010
0100
0101
1000
,
0010
0000
0101
0000
1000
0010
0100
0001
1000
0000
0100
0000
0010
0000
0101
0000
,
2001
0000
3010
0100
0001
1000
0010
0100
0001
0000
0010
0000
0100
0000
1010
0000
,
2001
0000
3010
0100
0001
0010
0100
1000
0001
0000
0100
0000
0010
0000
0101
0000
,
2001
0000
3001
0100
0001
0010
0100
1000
0001
0000
0010
0000
0100
0000
1010
0000
,
1002
0000
0103
1000
0010
0100
0001
0010
0001
0100
0010
1000
0100
1000
0001
0100
,
0001
1000
0010
1000
0001
0100
0010
1000
0001
1000
0010
0100
0001
0010
0100
0010
,
0001
0100
1010
0000
2002
0000
0000
0000
0000
0000
0000
0000
0000
0000
0000
0000
,
0000
0000
0000
0000
,
0000
0000
0000
0000
0000
0000
0000
3003
,
1001
0000
0010
0100
0000
0010
0100
0000
0001
0000
1000
0000
0110
0000
1001
0000
,
0110
0000
0001
1000
0000
0001
1000
0000
0110
0000
0100
0000
0011
0000
0001
0000
,
1010
0000
0100
0001
0000
0100
0001
0000
1010
0000
0100
0000
0011
0000
1100
0000
,
0011
0000
0100
1000
0000
0100
1000
0000
0101
0000
1000
0000
0101
0000
1000
0000
,
1001
0000
0000
1001
0000
0000
1001
0000
0101
0000
1000
0000
0101
0000
0010
0000
,
1100
0010
0101
1100
0011
0100
1001
0010
,
0101
0000
0000
0101
0000
0000
0101
0000
1010
0000
0100
0000
0011
0000
0100
0000
,
0001
1000
0010
0100
0001
0010
0001
0100
,
0010
1000
0010
0100
0001
0000
1000
0000
0011
0000
0101
0000
0001
1000
0010
0000
,
1000
0010
0100
0001
1000
0000
0010
0000
0101
0000
0101
0000
1010
0000
1010
0000
,
0001
0100
0010
1000
0001
0010
0001
0000
1010
0000
0101
0000
1010
0000
0101
0000
,
1000
0001
1000
0001
0010
0000
0100
0000
1010
0000
0101
0000
0110
0000
1001
0000
,
0210
0001
2300
3020
0130
0011
0100
0011
,
1100
0000
1100
0000
0010
0000
1000
0000
0101
0000
0101
0000
1000
0010
0100
0000
,
2001
0010
3200
0320
0031
1100
0001
1100
,
0011
0101
0010
1000
0110
0001
1000
0110
,
0001
1000
0010
0100
0001
0000
1000
0000
0010
0000
1100
0000
2010
0000
3001
0100
,
0001
0010
0001
0100
0010
0000
1000
0000
0001
0000
0110
0000
2001
0000
3010
0100
,
0001
0100
0010
1000
0001
0000
0100
0000
0001
0000
0110
0000
2001
0000
3001
1000
,
0001
0100
0010
1000
0001
0000
0100
0000
0010
0000
1100
0000
0012
0000
1003
0000
,
0010
0000
0100
0000
0001
0010
0000
0100
1000
0000
0100
1000
0000
0100
1000
0000
,
0001
0000
0100
0000
0010
1000
0000
0010
0200
0300
0000
0000
2000
3000
0000
0000
,
0001
0000
0100
0000
0010
1000
0000
0001
0100
0000
0001
0100
0000
0001
0100
0000
,
1000
0000
0010
0000
0100
0001
0000
1000
0020
0030
0000
0000
0200
0300
0000
0000
,
0001
0000
1000
0000
0001
1000
0000
0010
0100
0000
0010
0100
0000
0010
0100
0000
,
0001
0000
1000
0000
0010
0100
0000
0001
2000
3000
0000
0000
0002
0003
0000
0000
,
1000
0000
0010
0000
0100
0001
0000
1000
0001
0000
1000
0001
0000
1000
0001
0000
,
0020
0000
0000
0000
,
0000
0000
0000
0000
,
0000
0000
0000
0000
0000
0000
0000
0030
,
1100
0010
0100
0011
1100
0011
0110
1001
,
0010
0100
0001
0110
1010
0101
0110
1001
,
0110
1000
0001
0110
1100
0011
0110
1001
,
0110
0101
0110
0101
1010
0100
1010
0100
,
1001
0000
0000
1001
0000
0000
1001
0000
0110
0000
0000
0110
0000
0000
0110
0000
,
2001
3001
0100
0000
0010
0000
1000
0000
,
0001
0000
0000
0100
0000
0000
0010
0000
0000
1100
0000
0000
0011
0000
0000
1000
0100
1000
0010
0000
0000
0101
0000
0000
,
1010
0000
0101
0000
1000
0010
0000
0000
0001
0000
0100
0000
0001
1000
0001
0000
,
1010
0000
0000
1010
0000
0000
1010
0000
0110
0000
0000
0110
0000
0000
0110
0000
,
1001
0000
0110
0000
1000
0010
0100
0000
0001
0100
0010
0000
0010
0100
0001
0000
,
1100
0000
0011
0000
1000
0100
1000
0000
0011
0000
0100
1000
0001
1000
0100
0000
,
0001
0000
0110
0000
1000
0001
0100
0000
1001
0000
0010
0100
0010
0000
1100
0000
,
0011
0000
0000
0011
0000
0000
0011
0000
1100
0000
0001
0000
0110
0000
1001
0000
,
0100
0010
0000
1000
0000
0001
0100
0000
1000
0000
0010
0000
1000
0000
0010
0000
,
1001
0000
0010
0100
0000
0010
0100
0000
1000
0000
0100
0000
0011
0000
1100
0000
,
0011
0000
0100
1000
0000
0001
0010
0000
1001
0000
0100
0000
1001
0000
0010
0000
,
0101
0000
1000
0001
0000
1000
0001
0000
0010
0000
0100
0000
1001
0000
0110
0000
,
1001
0000
0010
0100
0000
0001
0010
0000
1100
0000
0010
0000
1100
0000
0011
0000
,
1001
0000
0000
1001
0000
0000
1001
0000
0101
0000
0010
0000
1000
0000
0011
0000
,
1100
0011
1100
0011
1001
0100
1001
0010
,
1001
0110
1001
0110
1000
0110
1001
0110
,
1000
0110
1001
0110
0101
1000
0101
0010
,
1001
0000
0100
0010
0000
0100
0010
0000
1000
0000
0001
0000
0110
0000
1010
0000
,
0110
0000
0001
1000
0000
0001
1000
0000
0110
0000
0001
0000
0110
0000
0001
0000
,
1000
0110
0101
0110
1000
0110
0101
0110
,
1000
0110
0101
0110
1001
0100
1001
0010
,
1001
0000
0000
1001
0000
0000
1001
0000
0100
0000
0001
0000
0100
0000
1010
0000
,
1001
0010
0100
0011
1100
0010
1100
0010
,
1001
0110
1010
0110
0001
0110
1010
0110
,
2002
0000
0000
0000
,
0000
0000
0000
0000
,
0000
0000
0000
0000
,
3003
0000
0000
0000
;
